#TITLE:Brave New World;
#SUBTITLE:;
#ARTIST:Avin;
#TITLETRANSLIT:;
#SUBTITLETRANSLIT:;
#ARTISTTRANSLIT:;
#CREDIT:;
#BANNER:Brave New World.png;
#BACKGROUND:Brave New World- bg.png;
#LYRICSPATH:;
#CDTITLE:HS3logo.png;
#MUSIC:Brave New World.ogg;
#OFFSET:0.000;
#SAMPLESTART:33.980;
#SAMPLELENGTH:12.000;
#SELECTABLE:YES;
#BPMS:0.000=170.000;
#STOPS:;
#BGCHANGES:;
// cache tags:
#FIRSTBEAT:16.000;
#LASTBEAT:296.000;
#SONGFILENAME:Songs/nhac/Brave New World/Brave New World.sm;
#HASMUSIC:1;
#HASBANNER:1;
#MUSICLENGTH:112.941;
// end cache tags

//---------------dance-single - ----------------
#NOTES:
     dance-single:
     :
     Hard:
     7:
     0.445,0.555,0.097,0.514,0.093,283.000,11.000,58.000,0.000,0.000:
0000
0000
0000
0000
,
0000
0000
0000
0000
,
0000
0000
0000
0000
,
0000
0000
0000
0000
,
0020
0000
0000
0000
,
2030
0000
0000
0000
,
3002
0000
0000
0000
,
0003
0000
0000
0000
,
0010
0000
0000
1000
0000
0000
0001
0000
0000
0000
0100
0000
0000
0000
0010
0000
,
1000
0000
0000
0001
0000
0000
0010
0000
0000
0000
0200
0000
0000
0000
0000
0000
,
1300
0000
0000
0010
0000
0000
0100
0000
0000
0000
0001
0000
0000
0000
0010
0000
,
0100
0000
0000
1000
0000
0000
0010
0000
0000
0000
0100
0000
0000
0000
0001
0000
,
1000
0000
0000
0100
0000
0000
0010
0000
0000
0000
0001
0000
0000
0000
1000
0000
,
0001
0000
0000
0100
0000
0000
0010
0000
0000
0000
2000
0000
0000
0000
0000
0000
,
3010
0000
0000
1000
0000
0000
0001
0000
0000
0000
0010
0000
0000
0000
0100
0000
,
1000
0010
1000
0001
0200
0000
0020
0300
,
0130
0001
1000
0010
0100
0010
1000
0000
,
0010
0100
0001
0010
0100
0010
0001
0000
,
2000
3020
0230
0302
,
1003
0000
0000
0010
0000
0000
1000
0000
0000
0000
0010
0000
0000
0000
1000
0000
,
0001
0100
0010
0100
0001
1000
0010
0000
,
0100
0001
1000
0010
0100
0001
1000
0000
,
0010
0100
0001
1000
0100
0010
0001
0000
,
0010
0000
0000
0100
0000
0000
1000
0000
0000
0000
0010
0000
0000
0000
0100
0000
,
0002
0010
0010
0013
,
2000
0010
0010
3010
,
0220
0330
2002
3003
,
0001
0000
0000
0100
0000
0000
0010
0000
0000
0000
1000
0000
0000
0000
0010
0000
,
0200
0001
0010
0302
,
0203
0010
0001
0320
,
2030
0000
3200
0000
,
0310
0000
0000
0001
0000
0000
0010
0000
0000
0000
0100
0000
0000
0000
1000
0000
,
0100
0000
0000
0010
0000
0000
0001
0000
0000
0000
0100
0000
0000
0000
0001
0000
,
0010
0000
0000
0100
0000
0000
1000
0000
0000
0000
0200
0000
0000
0000
0310
0000
,
0001
0000
0000
0100
0000
0000
0010
0000
0000
0000
1000
0000
0000
0000
0010
0000
,
0100
0000
0000
0001
0000
0000
1000
0000
0000
0000
0020
0000
0000
0000
0130
0000
,
0001
0000
0000
1000
0000
0000
0010
0000
0100
0000
0000
0001
0000
0000
1000
0000
,
0010
0000
0000
0100
0000
0000
0001
0000
1000
0000
0000
0100
0000
0000
0010
0000
,
0001
0000
0000
0100
0000
0000
0010
0000
1000
0000
0000
0010
0000
0000
0100
0000
,
2002
0000
0000
3003
,
0001
1000
0001
1000
0001
1000
0001
1000
,
0001
1000
0001
1000
0001
1000
0001
1000
,
0010
0100
0010
0100
0010
0100
0010
0100
,
0010
0100
0010
0100
0010
0100
0110
0000
,
0002
0203
0310
1000
,
0002
0000
0203
0000
0310
1000
0010
1000
,
0020
2030
3001
0100
,
0020
0000
2030
0000
3001
0100
0001
0100
,
0002
0000
1000
1000
,
2003
0000
0010
0010
,
3020
0000
0000
0030
,
2002
0000
0000
3003
,
0010
0000
0001
0000
1000
0100
1000
0100
,
1000
0000
0010
0000
0100
0010
0100
0010
,
0100
0000
0001
0000
0010
0001
1000
0001
,
0100
0000
0000
0000
,
0022
0000
0000
0033
,
0202
0000
0000
0303
,
2010
0000
0002
0000
,
0000
0000
0000
3003
,
2200
0000
0000
3300
,
0220
0000
0000
0330
,
0012
0000
2000
0003
,
0001
0001
0100
3200
,
0020
0000
0000
0030
,
0002
0000
0000
0003
,
2000
3000
2000
0000
,
0000
0000
0000
3300
,
0010
0001
0010
0000
1000
0100
1000
0000
,
0001
0010
0001
0000
1000
0100
1000
0000
,
0010
0100
0001
1000
0010
0100
0010
1000
,
0001
0010
0100
1000
0010
0100
0001
1000
,
0020
0000
0000
0000
,
0000
0000
0000
0030
;

//---------------dance-single - ----------------
#NOTES:
     dance-single:
     :
     Challenge:
     9:
     0.612,0.805,0.089,0.372,0.137,432.000,10.000,42.000,0.000,0.000:
0000
0000
0000
0000
,
0000
0000
0000
0000
,
0000
0000
0000
0000
,
0000
0000
0000
0000
,
2000
0000
0000
3000
,
0200
0000
0000
0300
,
0020
0000
0000
0030
,
0022
0000
0000
0033
,
0010
0001
0100
1000
0100
0010
0100
0001
,
1000
0010
0100
0010
0001
0010
1000
0100
,
0010
0100
1000
0010
0100
0010
0100
0001
,
1000
0000
0000
1000
0100
0000
0020
0000
0000
0000
0031
0000
0000
0001
0010
0000
,
0100
1000
0010
0001
0010
1000
0100
0010
,
0001
0010
1000
0010
0001
0100
0010
0100
,
0001
1000
0010
1000
0100
0010
0100
1000
,
0010
0000
0100
0000
0010
0000
0100
0000
0010
0100
0010
0100
0010
0100
0010
0100
,
0020
0000
0000
0030
,
0220
0000
0000
0330
,
2001
0010
0100
3010
,
1001
0000
0000
0100
0000
0000
0010
0000
0000
0000
2000
0000
0000
0000
3010
0000
,
0200
0000
0000
0300
,
0220
0000
0000
0330
,
1002
0010
0100
1003
,
1001
0000
0000
1000
0000
0000
0100
0000
0000
0000
1100
0000
0000
0000
0011
0000
,
0100
0010
0100
0001
0100
0010
1000
0001
,
0100
0010
0100
0001
0100
0010
1000
0001
,
0010
0001
0100
0010
0100
0001
1000
0010
,
0200
0000
0000
0001
0000
0000
0001
0000
0000
0000
0302
0000
0000
0000
1003
0000
,
0100
0010
0100
0010
0001
1000
0010
1000
,
0100
0001
0100
1000
0010
0100
0001
1000
,
0001
1000
0010
0100
0010
0100
0001
1000
,
0002
0000
0000
0100
0000
0000
0103
0000
0000
0000
0200
0000
0000
0000
0310
0000
,
1000
0000
0000
1000
0010
0000
0200
0000
0000
0000
0301
0000
0000
0000
0100
0000
,
0010
0000
0000
0010
1000
0000
0002
0000
0000
0000
0013
0000
0000
0000
0100
0000
,
0010
0000
0000
0010
0001
0000
2000
0000
0000
0000
3010
0000
0000
0000
0100
0000
,
0001
0000
0000
0001
1000
0000
0020
0000
0000
0000
0130
0000
0000
0000
0001
0000
,
1000
0000
0000
0100
0010
0000
0001
0000
0010
0000
0000
0100
1000
0000
0100
0000
,
0010
0000
0000
0001
0010
0000
0100
0000
1000
0000
0000
0100
0010
0000
0001
0000
,
0100
0000
0000
0100
0010
0000
1000
0000
0001
0000
0000
0001
0100
0000
0010
0000
,
0200
0000
0000
0000
0000
0000
0000
0000
0000
0000
0000
0000
0000
0300
0000
0000
,
0001
0001
1000
1000
0001
0001
1000
1000
,
0010
0010
0100
0100
0010
0010
0100
0100
,
0001
0001
0100
0100
1000
1000
0100
0100
,
0001
0001
1000
0001
1000
0001
0011
0000
,
0010
0001
0100
1000
0100
0001
0010
0001
,
0010
0100
1000
0010
0001
0010
1000
0100
,
1000
0001
0010
0001
1000
0001
0010
0001
,
1000
0010
0001
0010
1000
0100
0001
0100
,
1000
0010
1000
0001
0100
0010
0100
0001
,
1000
0010
0100
0001
1000
1000
0010
0010
,
0100
0001
0100
0010
0100
0001
0010
0100
,
0010
0001
1000
0001
1000
1000
0001
0001
,
0100
0010
0100
0010
0100
0010
0100
0010
,
1000
0001
1000
0001
1000
0001
1000
0001
,
0100
0010
1000
0010
0100
0010
1000
0001
,
0020
0230
2300
3002
,
0103
0010
0100
0002
0000
1003
0000
0010
,
0100
0001
0100
0020
0000
0230
0000
0000
,
0302
0000
2003
0000
,
3100
0000
0000
0100
0010
0000
0002
0000
0000
0000
1003
0000
0000
0000
0010
0000
,
0100
0010
0100
0002
0000
1003
0000
0010
,
0100
0001
0100
0020
0000
0230
0000
0000
,
0302
0000
2003
0000
,
3100
0000
0000
0100
0010
0000
0002
0000
0000
0000
1003
0000
0000
0000
0010
0000
,
0100
0001
0100
0001
0100
0001
0100
0001
,
0010
0001
0010
0001
0010
0001
0010
0001
,
0010
1000
0010
1000
0010
1000
0010
1000
,
0010
0000
0000
0010
0100
0000
2000
0000
0000
0000
3001
0000
0000
0000
1000
0000
,
0010
0100
0010
0100
0010
0100
0010
0100
,
0001
0100
0001
0100
0001
0100
0001
0100
,
0001
1000
0001
1000
0001
1000
0001
1000
,
0001
0100
0001
0100
0001
0100
0001
0100
0001
0100
0001
0100
0001
0100
0001
0100
,
0002
0000
0000
0003
;

//---------------dance-single - ----------------
#NOTES:
     dance-single:
     :
     Beginner:
     1:
     0.102,0.197,0.018,0.000,0.000,79.000,2.000,0.000,0.000,0.000:
0000
0000
0000
0000
,
0000
0000
0000
0000
,
0000
0000
0000
0000
,
0000
0000
0000
0000
,
0001
0000
0000
0000
,
0001
0000
0000
0000
,
0001
0000
0000
0000
,
0000
0000
0000
0000
,
1000
0000
0000
0000
,
0010
0000
0000
0000
,
0100
0000
0000
0000
,
0010
0000
0010
0000
,
0100
0000
0000
0000
,
0001
0000
0000
0000
,
0010
0000
0000
0000
,
0100
0000
0100
0000
,
1000
0000
0000
0000
,
0001
0000
0000
0000
,
0010
0000
0000
0000
,
0100
0000
0000
0000
,
0001
0000
0000
0000
,
1000
0000
0000
0000
,
0010
0000
0000
0000
,
0110
0000
0000
0000
,
0010
0000
0000
0000
,
0100
0000
0000
0000
,
0001
0000
1000
0000
,
0001
0000
0000
0000
,
1000
0000
0000
0000
,
0010
0000
0000
0000
,
0100
0000
0001
0000
,
1000
0000
0000
0000
,
0010
0000
0000
0000
,
0000
0000
0000
0000
,
0001
0000
0000
0000
,
0000
0000
0000
0000
,
0100
0000
0000
0000
,
1000
0000
0000
0000
,
0010
0000
0000
0000
,
1001
0000
0000
0000
,
0010
0000
0000
0000
,
0010
0000
0000
0000
,
0010
0000
0000
0000
,
0010
0000
0000
0010
,
0100
0000
0000
0000
,
0100
0000
0000
0000
,
0100
0000
0000
0000
,
0100
0000
0000
0100
,
0001
0000
0000
0000
,
1000
0000
0000
0000
,
0010
0000
0000
0000
,
0100
0000
0000
0001
,
1000
0000
0000
0000
,
0001
0000
0000
0000
,
0010
0000
0000
0000
,
0100
0100
0100
0100
,
1000
0000
0000
0000
,
0010
0000
0000
0000
,
0001
0000
0000
0000
,
0000
0000
0000
0000
,
1000
0000
0000
0000
,
0100
0000
0000
0000
,
0010
0000
0000
0000
,
0000
0000
0000
0000
,
0100
0000
0000
0000
,
0001
0000
0000
0000
,
0010
0000
0000
0000
,
0000
0000
0000
0000
,
0100
0000
1000
0000
,
0001
0000
0100
0000
,
0001
0000
0001
0000
,
1000
0000
1000
0000
,
0001
0000
0000
0000
,
1000
0000
0000
0000
,
0001
0000
0000
0000
;

//---------------dance-single - ----------------
#NOTES:
     dance-single:
     :
     Easy:
     3:
     0.204,0.355,0.097,0.204,0.000,127.000,11.000,23.000,0.000,0.000:
0000
0000
0000
0000
,
0000
0000
0000
0000
,
0000
0000
0000
0000
,
0000
0000
0000
0000
,
0020
0000
0000
0030
,
2000
0000
0000
3000
,
0002
0000
0000
0000
,
0000
0000
0003
0000
,
1000
1000
0000
0000
,
0010
0010
0000
0000
,
0100
0100
0000
0000
,
0001
0000
1000
0000
,
0010
0010
0000
0000
,
0100
0100
0000
0000
,
0001
0001
0000
0000
,
1000
0100
1000
0100
,
0020
0000
0000
0030
,
0002
0000
0000
0003
,
2000
0000
0000
0000
,
3010
0000
0000
0000
,
0200
0000
0000
0300
,
0002
0000
0000
0003
,
0020
0000
0000
0030
,
0100
0000
0000
0000
,
1000
0000
0100
0000
,
0010
0000
0001
0000
,
1001
0000
0110
0000
,
0001
0000
0000
0000
,
1000
0000
0010
0000
,
0100
0000
0001
0000
,
1010
0000
0010
0000
,
0000
0000
0000
0000
,
2000
0000
3000
0000
,
0020
0000
0030
0000
,
0200
0000
0300
0000
,
0002
0000
0003
0000
,
2000
3000
0020
0030
,
0200
0300
0002
0003
,
2000
3000
0020
0030
,
0200
0000
0000
0000
,
0301
0000
0000
0000
,
0000
0000
0000
0000
,
1000
0000
0000
0000
,
0010
0000
0000
0110
,
0010
0010
0010
0110
,
0100
0100
0100
0110
,
0010
0010
0010
0000
,
0010
0000
0010
0000
,
1000
1000
1000
1001
,
0001
0001
0001
1001
,
1000
1000
1000
1000
,
1000
0000
0001
0000
,
0100
0000
0010
0000
,
1000
0000
0010
0000
,
0100
0000
0001
0000
,
2001
0100
0100
3100
,
0100
0000
0000
0000
,
0010
0000
0000
0000
,
0001
0000
0010
0000
,
0100
0000
0000
0000
,
1000
0000
0000
0000
,
0010
0000
0000
0000
,
0100
0000
0001
0000
,
1000
0000
0000
0000
,
0010
0000
0010
0000
,
0110
0000
0010
0000
,
0001
0000
1000
0000
,
0001
0000
0100
0000
,
1000
0100
0001
0010
,
1000
0000
1000
0000
,
0001
0010
0001
1000
,
0100
0010
0001
1000
,
2002
0000
0000
0000
,
3003
0000
0000
0000
;

//---------------dance-single - ----------------
#NOTES:
     dance-single:
     :
     Medium:
     5:
     0.330,0.420,0.106,0.301,0.000,215.000,12.000,34.000,0.000,0.000:
0000
0000
0000
0000
,
0000
0000
0000
0000
,
0000
0000
0000
0000
,
0000
0000
0000
0000
,
0002
0000
0000
0000
,
2003
0000
0000
3000
,
0220
0000
0000
0330
,
0010
0100
0010
0100
0010
0100
0010
0100
,
0010
1000
0100
0010
,
0001
0010
0100
1000
,
0020
0000
0230
0000
,
0301
0001
0001
0000
,
1000
0010
0100
0001
,
0010
0001
1000
1000
,
0200
0000
0300
0000
,
0001
0010
0001
0010
0001
0010
0001
0010
,
0001
0000
1000
0000
,
0020
0000
0130
0000
,
0002
0000
0013
0000
,
1100
0110
0101
0000
,
2000
0000
3010
0000
,
0200
0000
0301
0000
,
2000
0000
3010
0000
,
0101
1010
0110
0000
,
0001
0010
0100
1000
,
0100
0000
0010
0000
0001
0000
1000
0100
,
0010
0000
0001
0000
,
1000
0010
0100
0001
,
1000
0010
0010
0100
,
0001
0000
1000
0000
0010
0100
0001
0000
,
1000
0001
1000
0001
,
1000
1000
0001
0001
,
2000
0000
0000
0000
0000
0000
3000
0001
,
0002
0000
0000
0000
0000
0000
0003
1000
,
2000
0000
0000
0000
0000
0000
3000
0001
,
0002
0000
0000
0003
,
2000
0000
3020
0000
,
0230
0000
0302
0000
,
2003
0000
3200
0000
,
0320
0000
0000
0000
,
0031
0001
0001
0001
,
0001
0001
0001
0001
,
0100
0100
0100
0100
,
0100
0100
0100
1001
,
1000
0100
1000
0000
0001
0100
0001
0000
,
1000
0010
1000
0000
0001
0010
0001
0000
,
1000
0100
1000
0000
0001
0100
0001
0000
,
1000
0010
0100
0000
,
0001
0010
0001
0000
1000
0100
1000
0000
,
0010
0100
0010
0000
1000
0100
1000
0000
,
0001
0010
0001
0000
1000
0100
1000
0000
,
0010
0100
0001
0000
,
1000
0010
0100
0001
,
1000
0010
0100
0001
,
1000
0100
0010
0001
,
0001
0100
0001
1000
,
2002
0000
3003
0000
,
2000
0000
0000
3000
,
0002
0000
1003
0000
,
0100
0010
1000
0000
,
0002
0000
0000
0003
,
0200
0000
0000
0300
,
0010
0000
1000
0000
,
0010
0100
0001
0000
,
2000
0000
0000
0000
,
3002
0000
0000
0000
0000
0000
0000
0003
,
0100
0000
0010
0000
,
0110
0110
0110
0000
,
2000
0000
0000
0000
,
3020
0000
0000
0030
,
0100
0001
0100
0001
,
1000
0010
0100
0001
1000
0010
0100
0001
,
2000
0000
0000
0000
,
3000
0000
0000
0000
;
